Bạn chưa đăng kí thành viên



 
Trang ChínhCalendarTrợ giúpTìm kiếmĐăng kýĐăng Nhập

Share|

Download phim Fast Five 2011 720p BluRay x264-HDTeam Nhanh Quá Nguy Hiểm Quá

Xem chủ đề cũ hơn Xem chủ đề mới hơn Go down
Tác giảThông điệp
spectre

avatar


Tổng số bài gửi : 31
Xu : 52
Join date : 09/09/2011
Đến từ : K42A

Bài gửiTiêu đề: Download phim Fast Five 2011 720p BluRay x264-HDTeam Nhanh Quá Nguy Hiểm Quá Sat Sep 10, 2011 8:18 pm

ast Five 2011 720p BluRay x264-HDTeam



Code:
Fast.Five.2011.720p.BluRay.x264-HDTeam

http://www.imdb.com/title/tt1596343

Name........: Fast Five 2011
Format......: Matroska at 7 209 Kbps
Length......: 6,56 GiB for 2h 10mn 21s 272ms
Video.......: AVC at 5 698 Kbps
Aspect......: 1280 x 544 (2.353) at 23.976 fps
Audio.......: DTS at 1 510 Kbps
Infos.......: 6 channels, 48,0 KHz
Language....: Eng
Code:
General
Unique ID : 190856890505422043475859762135689089498 (0x8F95B33696A1233BB9200C3EFA8051DA)
Complete name : D:\Fast.Five.2011.720p.BluRay.x264-HDTeam.mkv
Format : Matroska
Format version : Version 2
File size : 6.56 GiB
Duration : 2h 10mn
Overall bit rate : 7 209 Kbps
Encoded date : UTC 2011-08-19 08:56:27
Writing application : mkvmerge v2.7.0 ('Do It Again') built on Apr 15 2009 00:27:10
Writing library : libebml v0.7.7 + libmatroska v0.8.1

Video
ID : 1
Format : AVC
Format/Info : Advanced Video Codec
Format profile : High@L3.1
Format settings, CABAC : Yes
Format settings, ReFrames : 6 frames
Codec ID : V_MPEG4/ISO/AVC
Duration : 2h 10mn
Bit rate : 5 698 Kbps
Width : 1 280 pixels
Height : 544 pixels
Display aspect ratio : 2.35:1
Frame rate : 23.976 fps
Color space : YUV
Chroma subsampling : 4:2:0
Bit depth : 8 bits
Scan type : Progressive
Bits/(Pixel*Frame) : 0.341
Stream size : 5.06 GiB (77%)
Writing library : x264 core 115 r1995 c1e60b9
Language : English

Audio
ID : 2
Format : DTS
Format/Info : Digital Theater Systems
Codec ID : A_DTS
Duration : 2h 10mn
Bit rate mode : Constant
Bit rate : 1 510 Kbps
Channel(s) : 6 channels
Channel positions : Front: L C R, Side: L R, LFE
Sampling rate : 48.0 KHz
Bit depth : 24 bits
Compression mode : Lossy
Stream size : 1.37 GiB (21%)
Title : DTS 1510 Kbps
Language : English

Trailer

https://www.youtube.com/watch?feature=player_embedded&v=PpRFmO2fMhY



Download
Code:
4share.vn 36070f070e000002
Về Đầu Trang Go down

Download phim Fast Five 2011 720p BluRay x264-HDTeam Nhanh Quá Nguy Hiểm Quá

Xem chủ đề cũ hơn Xem chủ đề mới hơn Về Đầu Trang
Trang 1 trong tổng số 1 trang

Permissions in this forum:Bạn không có quyền trả lời bài viết
 :: -‘๑’- Giải trí -‘๑’- :: Video :: Phim-
Free forum | © phpBB | Free forum support | Liên hệ | Report an abuse | Create a free blog